Supergirl dtone big bang theory español 2160p mission impossible Fallout great british bake off s09e10 bbc Big Bang Theory the last ship Arrow peaky blinders ita The Big Bang Theory fgt 2018 ita DTONE the beatles white 2018 ganghofer Titans 1080p YIFY Game Of Thrones the resident chicago med s04e07 ethd legends of tomorrow Bohemian Rhapsody The flash pires ddr mission impossible ncis mr robot ita criminal minds GREYS ANATOMY The Gifted s02e06 ray donovan IT BULL laura lion the predator ettv empire Modern Family S10E07 EtHD flash seal team s02e06 american horror story evo 2018 movies The Walking Dead ita 2018 mayans american horror s08 etrg 0 blindspot south park South Park S22E06 criminal minds s14e06 Seal Team star trek discovery etmovies Outlander survivor supernatural hindi ita wwe venom lethal weapon girlsdoporn the walking dead s09e05 modern family 
Warning! Do not Download Without a VPN!
Your IP Address is .   Location is
Download and surf securely, stream unlimited and protect your personal data!
We strongly recommend using SpyOFF VPN!
Become Anonymous with SpyOFF
ETTV Recommended TV Shows
The.Big.Bang.Theory.S12E08.HDTV.x264-SVA[ettv] torrent
Supernatural.S14E05.HDTV.x264-SVA[ettv] torrent
Young.Sheldon.S02E08.HDTV.x264-KILLERS[ettv] torrent
Legacies.S01E03.HDTV.x264-SVA[ettv] torrent

ETTV Recommended Xvid
Mission.Impossible.Fallout.2018.HDRip.XViD.AC3-ETRG torrent
Watch.If.You.Dare.2018.HDRip.XviD.AC3-EVO torrent
Temple.2018.HDRip.XviD.AC3-EVO torrent
Zoe.2018.BRRip.XviD.AC3-EVO torrent

ETTV Recommended HD
Alone.We.Fight.2018.1080p.WEB-DL.H264.AAC-EVO[EtHD] torrent
Dog.Days.2018.1080p.WEB-DL.H264.AC3-EVO[EtHD] torrent
Mission.Impossible.Fallout.2018.1080p.WEB-DL.DD5.1.H264-CMRG[EtHD] torrent
Zoe.2018.1080p.BluRay.x264-VETO[EtHD] torrent

ETTV Recommended UHD
Men.in.Black.2.2002.Multi.UHD.2160p.Bluray.x265.HDR.Atmos.7.1-DTOne torrent
Men.In.Black.3.2012.Multi.UHD.2160p.Bluray.x265.HDR.Atmos.7.1-DTOne torrent
Saving.Private.Ryan.1998.Multi.UHD.2160p.BluRay.x265.HDR.Atmos.7.1-DTOne torrent
Incredibles.2.2018.Multi.UHD.2160p.BluRay.Remux.HEVC.HDR.Atmos.7.1-DTOne torrent

ETTV Recommended Cam
Replicas 2018.HDCAM.x264.AC3-ETRG torrent
Bohemian Rhapsody 2018 HDCAM.XViD.AC3-ETRG torrent
The Nutcracker and the Four Realms 2018 HDCAM x264 AC3-ETRG torrent
The.House.with.a.Clock.in.Its.Walls.2018.NEW HDCAM.XViD.AC3-ETRG torrent

ETTV Recommended Foreign
Qismat.(2018).1-3.Desi.Pre.Rip.x264.AAC.2.0-DTOne torrent
Co Co Kokila (2018) 1080p WEB-HD AVC AAC-DTOne torrent
Thugs of Hindostan 2018 Hindi 720p HDCAM x264 MP3 2.0 - xRG torrent
Bucket.List.2018.1080p.NF.WEB-DL.DD5.1.x264-TOMMY[EtHD] torrent

Social


Download Torrent "Bull (2016) S03E07 (1080p AMZN WEB-DL x265 HEVC 10bit AC3 5.1 Qman) [UTR]"

IMDB Details
Description:

N/A

Genre:

N/A

Download Torrent (Magnet)
Seeds: 162
Leechers: 112
Completed: 1,582 
Last Checked: 08-11-2018 14:59:02


Loading...
Details
Title:Bull (2016) S03E07 (1080p AMZN WEB-DL x265 HEVC 10bit AC3 5.1 Qman) [UTR]
Description:





Media Information
General
Format                                   : Matroska
Format version                           : Version 4 / Version 2
File size                                : 1.07 GiB
Duration                                 : 43 min 7 s
Overall bit rate                         : 3 540 kb/s
Encoded date                             : UTC 2018-11-07 17:08:36
Writing application                      : mkvmerge v27.0.0 ('Metropolis') 64-bit
Writing library                          : libebml v1.3.6 + libmatroska v1.4.9

Video
ID                                       : 1
Format                                   : HEVC
Format/Info                              : High Efficiency Video Coding
Format profile                           : Main [email protected]@Main
Codec ID                                 : V_MPEGH/ISO/HEVC
Duration                                 : 43 min 7 s
Bit rate                                 : 2 898 kb/s
Width                                    : 1 920 pixels
Height                                   : 1 080 pixels
Display aspect ratio                     : 16:9
Frame rate mode                          : Constant
Frame rate                               : 24.000 FPS
Color space                              : YUV
Chroma subsampling                       : 4:2:0
Bit depth                                : 10 bits
Bits/(Pixel*Frame)                       : 0.058
Stream size                              : 894 MiB (82%)
Writing library                          : x265 2.9+4-471726d3a046:[Windows][MSVC 1915][64 bit] 10bit
Encoding settings                        : cpuid=1111039 / frame-threads=4 / numa-pools=16 / wpp / no-pmode / no-pme / no-psnr / no-ssim / log-level=2 / input-csp=1 / input-res=1920x1080 / interlace=0 / total-frames=62106 / level-idc=0 / high-tier=1 / uhd-bd=0 / ref=4 / no-allow-non-conformance / no-repeat-headers / annexb / no-aud / no-hrd / info / hash=0 / no-temporal-layers / open-gop / min-keyint=24 / keyint=250 / gop-lookahead=0 / bframes=8 / b-adapt=2 / b-pyramid / bframe-bias=0 / rc-lookahead=50 / lookahead-slices=4 / scenecut=40 / radl=0 / no-intra-refresh / ctu=64 / min-cu-size=8 / no-rect / no-amp / max-tu-size=32 / tu-inter-depth=1 / tu-intra-depth=1 / limit-tu=0 / rdoq-level=2 / dynamic-rd=0.00 / no-ssim-rd / signhide / no-tskip / nr-intra=0 / nr-inter=0 / no-constrained-intra / no-strong-intra-smoothing / max-merge=3 / limit-refs=3 / limit-modes / me=3 / subme=3 / merange=57 / temporal-mvp / weightp / no-weightb / no-analyze-src-pics / deblock=1:1 / no-sao / no-sao-non-deblock / rd=4 / no-early-skip / no-rskip / no-fast-intra / no-tskip-fast / no-cu-lossless / no-b-intra / no-splitrd-skip / rdpenalty=0 / psy-rd=1.40 / psy-rdoq=1.00 / no-rd-refine / no-lossless / cbqpoffs=0 / crqpoffs=0 / rc=crf / crf=21.0 / qcomp=0.60 / qpstep=4 / stats-write=0 / stats-read=0 / ipratio=1.40 / pbratio=1.30 / aq-mode=2 / aq-strength=1.00 / cutree / zone-count=0 / no-strict-cbr / qg-size=32 / no-rc-grain / qpmax=69 / qpmin=0 / no-const-vbv / sar=0 / overscan=0 / videoformat=5 / range=0 / colorprim=2 / transfer=2 / colormatrix=2 / chromaloc=0 / display-window=0 / max-cll=0,0 / min-luma=0 / max-luma=1023 / log2-max-poc-lsb=8 / vui-timing-info / vui-hrd-info / slices=1 / no-opt-qp-pps / no-opt-ref-list-length-pps / no-multi-pass-opt-rps / scenecut-bias=0.05 / no-opt-cu-delta-qp / no-aq-motion / no-hdr / no-hdr-opt / no-dhdr10-opt / no-idr-recovery-sei / analysis-reuse-level=5 / scale-factor=0 / refine-intra=0 / refine-inter=0 / refine-mv=0 / no-limit-sao / ctu-info=0 / no-lowpass-dct / refine-mv-type=0 / copy-pic=1 / max-ausize-factor=1.0 / no-dynamic-refine / no-single-sei
Language                                 : English
Default                                  : Yes
Forced                                   : No

Audio
ID                                       : 2
Format                                   : E-AC-3
Format/Info                              : Enhanced Audio Coding 3
Format settings, Endianness              : Big
Codec ID                                 : A_EAC3
Duration                                 : 43 min 7 s
Bit rate mode                            : Constant
Bit rate                                 : 640 kb/s
Channel(s)                               : 6 channels
Channel positions                        : Front: L C R, Side: L R, LFE
Sampling rate                            : 48.0 kHz
Frame rate                               : 187.500 FPS (256 spf)
Compression mode                         : Lossy
Stream size                              : 197 MiB (18%)
Language                                 : English
Default                                  : Yes
Forced                                   : No

Subtitle
ID                                       : 3
Format                                   : UTF-8
Codec ID                                 : S_TEXT/UTF8
Codec ID/Info                            : UTF-8 Plain Text
Duration                                 : 42 min 29 s
Bit rate                                 : 99 b/s
Count of elements                        : 958
Stream size                              : 31.0 KiB (0%)
Language                                 : English
Default                                  : Yes
Forced                                   : No

Source Information
Release: Unknown Source/NO-GROUP


UTR wrote:

Note From UTR
We have no issue with individuals posting or re-uploading our torrents on a platform we aren't on. However, if this is something you'd like to do, please do so in a 'as-is' format. We ask that you do not create a new torrent, include all descriptions you see above including the UTR logo, tags, notes and screenshots. If you'd like to become a permanent poster on a website we don't post to, feel free to get in contact with a UniTeam member.

If possible please donate: BTC 1QA5fum5AyXvWzdVCkQzUNvw3Ef15fHRaR


Category:TV > HEVC/x265
Lang:English  English
Total Size:1.07 GB
Info Hash:052ec2b2d252e5742eacab2c495804dd65820022
Added By:UTR
Date Added:08-11-2018 14:58:55

Files

File List: 
 File Size
Bull.(2016).S03E07.1080p.AMZN.WEB-DL.x265.10bit.EAC3.6.0-Qman[UTR].mkv1.07 GB



Loading...
Comments

There are currently no comments. Be the first one to write something !

Disclaimer: None of the files shown here are actually hosted or transmitted by this server. The links are provided solely by this site's users. The site moderation is also a service provided by the site's users. The administrator of this site (ettv.tv) cannot be held responsible for what its users post, or any other actions of its users. You may not use this site to distribute or download any material when you do not have the legal rights to do so. It is your own responsibility to adhere to these terms.

Sitemap